#TITLE:Schmollbluk;
#SUBTITLE:;
#ARTIST:S.I.M. on kor Funkle;
#TITLETRANSLIT:;
#SUBTITLETRANSLIT:;
#ARTISTTRANSLIT:;
#CREDIT:;
#BANNER:Schollbuck-bn.png;
#BACKGROUND:Schollbuck-bg.png;
#LYRICSPATH:;
#CDTITLE:cd-yanah.PNG;
#MUSIC:64449574_e565973b.mp3;
#OFFSET:-0.105;
#SAMPLESTART:92.036;
#SAMPLELENGTH:12.000;
#SELECTABLE:YES;
#BPMS:0.000=102.500,19.000=205.000,20.000=102.500,32.000=205.000,38.000=410.000,40.000=205.000,47.000=410.000,48.000=205.000,167.000=410.000,168.000=205.000,183.000=410.000,184.000=205.000,199.000=410.000,200.000=205.000,508.000=102.500,584.000=205.000,635.000=410.000,636.000=205.000,651.000=410.000,652.000=205.000,699.000=410.000,700.000=205.000,759.000=410.000,760.000=205.000,775.000=410.000,776.000=205.000,819.000=410.000,820.000=205.000,836.000=102.500;
#STOPS:19.000=0.293
,38.000=0.293
,47.000=0.146
,87.250=2.341
,167.000=0.146
,183.000=0.146
,199.000=0.146
,635.000=0.146
,651.000=0.146
,699.000=0.146
,711.500=1.171
,759.000=0.146
,771.875=1.171
,775.000=0.146
,819.000=0.146
;
#BGCHANGES:;
// cache tags:
#FIRSTBEAT:0.000;
#LASTBEAT:851.750;
#SONGFILENAME:Songs/Music V.I.P ^_^/schmollbluk/schmollbluk.sm;
#HASMUSIC:1;
#HASBANNER:1;
#MUSICLENGTH:309.080;
// end cache tags

//---------------dance-single - Steps by Yanah, GFX ----------------
#NOTES:
     dance-single:
     Steps by Yanah, GFX :
     Hard:
     17:
     1.000,1.000,1.000,0.699,1.000,2106.000,1017.000,216.000,0.000,142.000:

0120
0000
0030
0000
0002
0003
1100
0000
1100
0000
0002
0003
1100
1100
1100
0000
,
1200
0000
0000
0000
0000
0000
0300
0000
0010
0010
0010
1000
1000
1000
0001
0001
1100
0000
0000
0000
1200
0000
0000
0000
0000
0000
0300
0000
0110
0000
0000
0000
,
0110
0000
0000
0000
0000
0000
0000
0000
0010
0100
1000
0001
0100
0010
0001
1000
1100
0000
0000
0000
1100
0000
0000
0000
0020
0000
0000
0000
0000
0000
0000
0030
,
0110
0000
0000
0000
0000
0000
0000
0000
0002
0000
0000
0000
0000
0000
0000
0003
0002
0000
0000
0000
0000
0000
0000
0003
0002
0003
0002
0003
0002
0003
0002
0003
,
1100
0000
1100
0000
0020
0000
1130
0000
1100
1100
0020
0000
0030
0000
0000
0000
,
1100
0000
1100
0000
1100
0000
1100
0000
0120
0000
0000
0000
1031
1001
1001
1001
,
1100
0000
0000
1100
0000
0000
1100
0000
0000
1100
0000
0000
0020
0000
0000
0000
0032
0000
0000
0000
2003
0000
0000
0000
3200
0000
0000
0000
0000
0000
0000
0000
0000
0000
0000
0000
0000
0000
0000
0000
0000
0000
0300
0000
0000
0000
0000
0000
,
0010
0000
0000
0000
0000
0000
0000
0000
0200
0300
0000
0000
0000
0000
0000
0000
,
0101
0000
0000
0000
0101
0000
0000
0000
2000
0000
0000
0000
3101
0000
0000
0000
0101
0000
0000
0000
0101
0000
0000
0000
0020
0000
0000
0000
1030
0010
1000
0010
,
0101
0101
0101
0101
0000
0000
0000
0000
,
0101
0101
0101
0101
0101
2000
3101
0101
,
0101
0000
0101
0000
0101
0000
0210
0010
0010
0010
0010
0310
0000
0000
0000
0000
,
0110
0000
0000
0110
0000
0000
0110
0000
0000
0110
0000
0000
1010
0000
0000
0110
,
0000
0000
0000
0000
0110
0000
0000
0000
0000
0000
0110
0000
0000
0000
0000
0000
0110
0000
0000
0000
0000
0000
1000
0001
1000
0001
1000
0001
1000
0001
1000
0001
,
0110
0000
0000
0110
0000
0000
0110
0000
0000
0110
0000
0000
1010
0000
0000
0110
,
0000
0000
0000
0000
0000
0000
0000
0000
0110
0000
0000
0000
0000
0000
0000
0000
0000
0000
0000
0000
0110
0000
0000
0000
0000
0000
0000
0000
0000
0000
0000
0000
0110
0000
0000
0000
0000
0000
0000
0000
0000
0000
0000
0000
1000
0000
0000
0010
0000
0000
1000
0000
0000
0010
0000
0000
1000
0000
0000
0010
0000
0000
0000
0000
,
1100
0000
0000
0000
1100
0000
0000
0000
0020
0000
0000
0000
0130
0000
0000
0000
0110
0001
0010
0100
0020
0000
0000
0000
1130
0000
1100
0000
1100
0000
1100
0000
,
0002
0000
0023
1130
0002
1103
0000
0020
,
0032
0000
0000
0003
0001
0000
0000
0000
0001
0000
0001
0000
0001
0010
0001
0010
1100
0000
0000
0000
0000
0000
0000
0000
1100
0000
0000
0000
0000
0000
0000
0000
,
1001
0000
0000
0000
1001
0000
0000
0000
0220
0000
0000
0330
0202
0000
0000
0303
1001
0000
0000
0000
0020
0000
0000
0000
0131
0000
0000
0000
0101
0000
0101
0000
,
1001
0000
0000
0000
0000
0000
1001
0000
0000
0000
0000
0000
1000
0010
0000
1000
0010
0000
0101
0000
0000
0000
0000
0000
0000
0000
0000
0000
0000
0000
0020
0000
0000
0000
0030
0000
1000
0000
0010
0000
1000
0000
0010
0000
1000
0000
0000
0000
,
0101
0000
0000
0000
0000
0000
0000
0000
0000
0000
0000
0000
0101
0010
0000
1000
0010
0000
0000
0000
0000
0101
0000
0000
0000
0000
0000
0000
0000
0000
0101
0000
0000
0000
0000
0000
0000
0000
0000
0101
0000
0000
0000
0000
0000
0000
0000
0000
,
1010
0000
0000
0000
1010
0000
0000
0000
1010
0000
0000
0000
1010
0000
0000
0000
0002
0000
0000
0000
1013
0000
0000
0000
1010
0000
0000
0000
1000
0100
0010
0001
,
1010
0000
0000
0000
0000
0000
0000
0000
0000
0000
0000
0000
0000
0000
0000
0000
0000
0000
0000
0000
0000
0000
0000
0000
1010
0000
0000
0000
0000
0000
0000
0000
0000
0000
0000
0000
0000
0000
0000
0000
0000
0000
0000
0000
0000
0000
0000
0000
0100
0000
0000
0000
0001
0000
0000
0000
0000
0000
0000
0000
0100
0000
0000
0000
0001
0000
0000
0000
0000
0000
0000
0000
1010
0000
0000
0000
0000
0000
0000
0000
0000
0000
0000
0000
0000
0000
0000
0000
0000
0000
0000
0000
0000
0000
0000
0000
1010
0000
0000
0000
0000
0000
0000
0000
0000
0000
0000
0000
0000
0000
0000
0000
0000
0000
0000
0000
0000
0000
0000
0000
1010
0000
0000
0000
0000
0000
0000
0000
0000
0000
0000
0000
0000
0000
0000
0000
0000
0000
0000
0000
0000
0000
0000
0000
1010
0000
0000
0000
0000
0000
0000
0000
0000
0000
0000
0000
0000
0000
0000
0000
0000
0000
0000
0000
0000
0000
0000
0000
0100
0000
0000
0000
0000
0000
0010
0000
0000
0000
0000
0000
0001
0000
0000
0000
0000
0000
1000
0000
0000
0000
0000
0000
,
0110
0000
0110
0000
0110
0000
0110
0000
0110
0000
0110
0000
0110
0000
0110
0000
2000
0000
0000
0000
3011
0000
0000
0000
0011
0000
0000
0000
0001
0010
0100
1000
,
0011
0000
0000
0000
0000
0000
0000
0000
0000
0000
0000
0000
0000
0000
0000
0000
0000
0000
0000
0000
0000
0000
0000
0000
0011
0000
0000
0000
0000
0000
0000
0000
0000
0000
0000
0000
0000
0000
0000
0000
0000
0000
0000
0000
0000
0000
0000
0000
1000
0000
0000
0000
0100
0000
0000
0000
0000
0000
0000
0000
1000
0000
0000
0000
0100
0000
0000
0000
0000
0000
0000
0000
0011
0000
0000
0000
0000
0000
0000
0000
0000
0000
0000
0000
0000
0000
0000
0000
0000
0000
0000
0000
0000
0000
0000
0000
0011
0000
0000
0000
0000
0000
0000
0000
0000
0000
0000
0000
0000
0000
0000
0000
0000
0000
0000
0000
0000
0000
0000
0000
0011
0000
0000
0000
0000
0000
0000
0000
0000
0000
0000
0000
0000
0000
0000
0000
0000
0000
0000
0000
0000
0000
0000
0000
0011
0000
0000
0000
0000
0000
0000
0000
0000
0000
0000
0000
0000
0000
0000
0000
0000
0000
0000
0000
0000
0000
0000
0000
1000
0000
0000
0000
0000
0000
0010
0000
0000
0000
0000
0000
1000
0000
0000
0000
0000
0000
0010
0000
0000
0000
0000
0000
,
0101
0000
0101
0000
0101
0000
0101
0000
0101
0000
0101
0000
0101
0000
0101
0000
2000
0000
0000
0000
0020
0000
0000
0000
0031
0100
0001
0000
0200
0000
0000
3300
,
0101
0000
0101
0000
0101
0000
0101
0000
0010
1000
0010
1000
0101
0000
0101
0000
0101
0000
0101
0000
0010
0000
0000
0000
0010
0000
0000
0000
0010
0000
0000
0000
,
1000
0100
1000
0100
1000
0100
1000
0100
1000
0001
1000
0001
1000
0100
1000
0100
1000
0100
1000
0100
1000
0001
1000
0001
0010
0000
0000
0000
0010
0000
0000
0000
,
0010
0100
0001
0000
1000
0000
1000
0000
0000
0020
0000
0030
0000
0000
0000
0000
1000
0000
1000
0000
1000
0001
0100
0000
0100
0000
0100
0000
0010
0000
0010
0000
,
0011
0000
0011
0000
0011
0000
0011
0000
2000
0000
3000
0000
0011
0000
0000
0000
0100
0010
0100
0010
2000
0000
3000
0000
0011
0000
0011
0000
1000
0000
0000
0000
,
0011
0000
0000
1100
0000
0000
0011
0000
0000
0000
0000
0000
0100
0010
0000
0100
0010
0000
1001
0000
0000
1001
0000
0000
1001
0000
0000
1001
0000
0000
1001
0000
0000
1001
0000
0000
0020
0000
0000
0000
0000
0000
0000
0000
0000
0000
0000
0000
,
1031
1001
1001
0110
1001
1001
1001
0110
0020
0030
1100
0000
1100
0000
0002
0000
,
1103
0000
0000
0000
0000
0000
0000
0000
0000
0000
0000
0000
1100
0000
0000
0000
0000
0000
0000
0000
0000
0000
0000
0000
1100
0000
0000
0000
0000
0000
0000
0000
0000
0000
0000
0000
1100
0000
0000
0000
0000
0000
0000
0000
0000
0000
0000
0000
0001
0000
0000
0000
0010
0000
0000
0000
0000
0000
0000
0000
0001
0000
0000
0000
0010
0000
0000
0000
0000
0000
0000
0000
1100
0000
0000
0000
0000
0000
0000
0000
0000
0000
0000
0000
0000
0000
0000
0000
0000
0000
0000
0000
0000
0000
0000
0000
1001
0000
0000
0000
0000
0000
0000
0000
0000
0000
0000
0000
1001
0000
0000
0000
0000
0000
0000
0000
0000
0000
0000
0000
1001
0000
0000
0000
0000
0000
0000
0000
0000
0000
0000
0000
1001
0000
0000
0000
0000
0000
0000
0000
0000
0000
0000
0000
0010
0000
0000
0000
0000
0000
0100
0000
0000
0000
0000
0000
0010
0000
0000
0000
0000
0000
0100
0000
0000
0000
0000
0000
0010
0000
0000
0000
0000
0000
0100
0000
0000
0000
0000
0000
0010
0000
0000
0000
0000
0000
0100
0000
0000
0000
0000
0000
,
1010
1010
1010
0110
0202
0303
1010
1010
2000
0000
3000
0000
0200
0000
0300
0000
,
1100
0000
1100
0000
1100
0000
1100
0000
0001
0010
0100
1000
0110
0000
0110
0000
0110
0000
0110
0000
2002
0000
3003
0000
2002
0000
3003
0000
2002
0000
3003
0000
,
1010
0000
0000
0000
0000
0000
0000
0000
0001
0010
0100
1000
0101
0000
0000
0000
0000
0000
0000
0000
0001
0100
0010
1000
0101
0000
0000
0000
0101
0000
0000
0000
,
1000
0010
0100
0000
0100
0000
0100
0000
0100
0002
0003
0000
0000
0000
0000
0000
0100
0000
0100
0000
0100
0001
0010
0000
0010
0000
0010
0000
0010
0000
0010
0000
,
0101
0000
1000
0101
0000
1000
0101
0101
,
0110
0110
0101
0000
1000
1000
0101
0101
,
0101
0000
1000
0101
0000
1000
0101
0101
,
1010
0000
0000
0000
0000
0000
0000
0000
1010
0000
0000
0000
0000
0000
0000
0000
0101
0000
2000
0000
3002
0000
2003
0000
3002
0000
2003
0000
3002
0000
2003
0000
3010
0000
0000
0000
0100
0000
0000
0000
0001
0100
0010
1000
0001
0100
0010
1000
0000
0000
0000
0000
0000
0000
0000
0000
0000
0000
0000
0000
0000
0000
0000
0000
,
1020
0030
1020
0030
1020
0030
1010
1010
,
0101
0101
1010
0000
0001
0001
0110
0110
,
0110
0000
0110
0110
0000
0001
0110
0110
,
1010
0000
0000
0000
0000
0000
0000
0000
1010
0000
0000
0000
0000
0000
0000
0000
0110
0000
0002
0000
2003
0000
3002
0000
2003
0000
3002
0000
2003
0000
3002
0000
0013
0000
0000
0000
0100
0000
0000
0000
1000
0010
0100
0001
1000
0010
0100
0001
0000
0000
0000
0000
0000
0000
0000
0000
0000
0000
0000
0000
0000
0000
0000
0000
,
1100
0000
0010
1100
0000
0010
1100
1100
,
1001
1001
1100
0000
0010
0010
1100
1100
,
1100
0000
0010
1100
0000
0010
1100
1100
,
0011
0000
0000
0000
0000
0000
0000
0000
0011
0000
0000
0000
0000
0000
0000
0000
1100
0000
0020
0000
0230
0000
0320
0000
0230
0000
0320
0000
0230
0000
0320
0000
0031
0000
0000
0000
1000
0000
0000
0000
0100
1000
0001
0010
0100
1000
0001
0010
0000
0000
0000
0000
0000
0000
0000
0000
0000
0000
0000
0000
0000
0000
0000
0000
,
1001
0000
0000
0000
1001
0000
0000
0000
0010
0000
0000
0000
1100
0011
1100
0011
0110
1001
0110
1001
1100
0000
0000
0000
1001
0000
0000
0000
0010
0000
0000
0000
,
1001
1001
1100
0000
1001
1001
0110
0000
1001
1001
1001
1001
1100
0000
0110
0000
,
2001
0001
0001
0001
3010
0000
2001
0001
,
0001
0000
0001
0000
3010
0010
0010
0010
0101
0000
0101
0000
0101
0000
0101
0000
,
1010
0000
1010
0000
1010
0000
0000
0000
0000
0000
0000
0000
1010
0000
0000
0000
1010
0000
0000
0000
1010
0000
0000
0000
0000
0000
0000
0000
1010
0101
1010
0101
,
1010
0000
0000
0000
0011
0011
0011
0011
0011
0000
2000
0000
0000
0000
0000
0000
,
3110
0000
0000
0000
0001
0000
0000
0000
1020
0000
0000
0000
0000
0000
0000
0000
0030
0000
0000
0000
0101
0000
0000
0000
0101
0000
0000
0000
0010
1000
0010
1000
,
0101
0000
0000
0000
0101
0000
0000
0000
0020
0000
0000
0000
0131
0000
0101
0000
0010
1000
0010
1000
0101
0000
0101
0000
2000
0000
0000
0000
0000
0000
0000
0000
,
3110
0000
0000
0000
0000
0000
0000
0000
0000
0000
0000
0000
0110
0000
0000
0000
0110
0000
0000
0000
0000
0000
0000
0000
0000
0000
0000
0000
1000
0100
0010
0001
,
0110
0000
0000
0000
0110
0110
0110
0110
0110
0000
0002
0000
0000
0000
0000
0000
,
1103
0000
0000
0000
0000
0000
0000
0000
0020
0000
0000
0000
0000
0000
0000
0000
0000
0000
0000
0000
1130
0000
0000
0000
1100
0000
0000
0000
1000
0010
0100
0001
,
1100
0000
0000
0000
1100
0000
0000
0000
0002
0000
0000
0000
1103
0000
1100
0000
0001
0010
0001
0010
1100
0000
1100
0000
0020
0000
0000
0000
0000
0000
0000
0000
,
1031
0000
0000
0000
0000
0000
0000
0000
0000
0000
0000
0000
1001
0000
0000
0000
1001
0000
0000
0000
0000
0000
0000
0000
0000
0000
0000
0000
0010
1000
0001
0100
,
2020
0000
3030
0000
0000
0000
0000
0000
0001
0010
0100
1000
0100
0010
0001
0010
1100
0000
0000
0000
0002
0000
0000
0000
0000
0000
0000
0000
0000
0000
0000
0000
,
1103
0000
0100
0000
0100
0000
0100
0000
1020
0000
0000
0000
0000
0000
0000
0000
0030
0000
0000
0000
0101
0000
0000
0000
0101
0000
0000
0000
0100
1000
0001
0010
,
0101
0000
0000
0000
0101
0000
0000
0000
0020
0000
0000
0000
0131
0000
0101
0000
0010
1000
0010
1000
0101
0000
0101
0000
2000
0000
0000
0000
0000
0000
0000
0000
,
3110
0000
0000
0000
0000
0000
0000
0000
0000
0000
0000
0000
0110
0000
0000
0000
0110
0000
0000
0000
0000
0000
0000
0000
0000
0000
0000
0000
0001
0010
0100
1000
,
0110
0000
0000
0000
0110
0110
0110
0110
0110
0000
2000
0000
0000
0000
0000
0000
,
3011
0000
0000
0000
0000
0000
0000
0000
0200
0000
0000
0000
0000
0000
0000
0000
0000
0000
0000
0000
0311
0000
0000
0000
0011
0000
0000
0000
0001
0100
0010
1000
,
0011
0000
0000
0000
0011
0000
0000
0000
2000
0000
0000
0000
3011
0000
0011
0000
1000
0100
1000
0100
0011
0000
0011
0000
0200
0000
0000
0000
0000
0000
0000
0000
,
1310
0001
1010
0001
1010
0001
1010
0001
,
1010
0000
0001
0000
1010
0000
0001
0000
1010
0000
0001
0000
1010
0101
1010
0101
,
0110
1000
0110
1000
0110
1000
0110
1000
,
0110
1000
0110
1000
0110
1000
2200
0000
,
3311
0000
0011
0000
0011
0000
1000
0000
0011
1000
0000
0000
0011
1000
0001
1000
,
0011
1000
0011
1000
0011
1000
1100
1100
,
0101
0010
0101
0010
0101
0010
0101
0101
,
2000
0000
0000
0000
3100
0000
0100
0000
0100
0000
0100
0000
2000
0000
0000
0000
0000
0000
0000
0000
3101
0000
0010
0000
1000
0000
0000
0000
0001
0010
0100
1000
,
0101
0010
1101
0010
0101
0010
1101
0010
,
0101
0000
0000
0000
0010
0000
0000
0000
1101
0000
0000
0000
0101
0000
0000
0000
0000
0000
0000
0000
1001
0000
1001
0000
0001
0010
0100
1000
0000
0000
0000
0000
,
1100
0010
1101
0010
1100
0010
1101
0010
,
1100
0010
1101
0010
1100
0010
2002
0000
,
3113
0000
0101
0000
0111
0000
0101
0000
0101
1000
0000
0000
0111
1000
0010
1000
,
0101
1000
0111
1000
0101
1000
1100
1100
,
1010
0100
1011
0100
1010
0100
1011
0100
,
1010
1010
1010
1010
0102
0000
0020
0000
0000
0000
0000
0000
0000
0000
0000
0000
,
1133
0000
0000
0000
1110
0001
1000
0001
1100
0001
1000
0000
1110
0001
1000
0001
,
1100
0001
1000
0000
1110
0001
1000
0001
1100
0001
1000
0000
1100
1100
1100
1100
,
0110
0000
0000
0000
0111
1000
0001
1000
0110
1000
0001
0000
0111
1000
0001
1000
,
0110
1000
0001
0000
0111
1000
0001
1000
0110
1000
0001
0000
2020
0000
0000
0000
,
3131
0000
0101
0000
0101
1000
0010
1000
0101
1000
0010
0000
0101
1000
0010
1000
,
0101
1000
0010
0000
0101
1000
0010
1000
0101
1000
0010
0000
0110
0000
0110
0000
,
1001
0000
0000
0000
1001
0010
0100
0010
1001
0010
0100
0000
1001
0000
1001
0000
,
0022
0000
0000
0000
1133
0000
1100
0000
1100
0000
1100
0000
0022
0000
0000
0000
0000
0000
0000
0000
1133
0000
0110
0000
0022
0000
0000
0000
0100
1000
0100
1000
,
1133
0010
1101
0010
1100
0010
1101
0010
,
1100
0000
0000
0000
0010
0000
0000
0000
1101
0000
0000
0000
0110
0000
0000
0000
0000
0000
0000
0000
0110
0000
1001
0000
0110
1001
0110
1001
0000
0000
0000
0000
,
0101
1000
0111
1000
0101
1000
0111
1000
,
0101
1000
0010
1000
0111
1000
0010
1000
0101
1000
0010
1000
0220
1000
0001
1000
,
1331
0000
1001
0000
1011
0000
1001
0000
1001
0000
0100
0000
1011
0100
0010
0100
,
1001
0100
1011
0100
1001
0100
0101
0101
,
0011
0000
0100
0000
0111
0000
0100
0000
0011
0000
0100
1000
0111
1000
0100
1000
,
0200
0000
0000
0000
,
1310
0000
1010
0000
0101
0000
0000
0000
0010
0010
0010
0010
0101
0000
0101
0000
,
0110
0110
0101
0000
1010
0110
0110
0011
,
0101
0101
0020
0131
,
0101
0000
0101
0000
2000
3101
0101
0101
,
0110
0110
0110
0110
1001
0000
1001
0000
0020
0000
1130
0000
0000
0000
1100
0000
,
0110
0000
0110
0000
0101
0000
0110
0000
1000
0000
0110
0000
1001
1001
1001
1001
,
1001
0000
0000
0000
0000
0000
0000
0000
0011
0000
0000
0000
1001
0000
0000
0000
0000
0000
0000
0000
0100
0000
0001
0000
1000
0010
0100
0001
1100
0000
0000
0000
,
0011
0000
0000
0000
0000
0000
0000
0000
0000
0000
0000
0000
0000
0000
0000
0000
0101
0000
0000
0000
0000
0000
0000
0000
0101
0000
0000
0000
0101
0000
0000
0000
1000
0100
0010
0001
1000
0100
0010
0001
1100
0000
0000
0000
0000
0000
0000
0000
0020
0000
0000
0000
0000
0000
0000
0000
0000
0000
0000
0000
0000
0000
0000
0000
,
0131
0000
0000
0000
0101
0000
0000
0000
0100
0000
0000
0000
1100
0011
1100
0011
,
0110
0000
0000
0000
0100
0000
0000
0000
0110
1001
0110
1001
0000
0000
0010
0000
,
0110
0000
0110
0000
0010
0000
0110
0110
,
0110
0000
0000
0000
0110
0000
0000
0000
0001
0000
1000
0000
0001
0010
0100
0000
,
1001
0000
1001
0000
0001
0000
1010
1010
,
1100
0000
0000
0000
0000
0000
0000
0000
0000
0000
0000
0000
0000
0000
0000
0000
0000
0000
0000
0000
0000
0000
0000
0000
1100
0000
0000
0000
0000
0000
0000
0000
0000
0000
0000
0000
0000
0000
0000
0000
0000
0000
0000
0000
0000
0000
0000
0000
1100
0000
0000
0000
0000
0000
0000
0000
0000
0000
0000
0000
0000
0000
0000
0000
0000
0000
0000
0000
0000
0000
0000
0000
0011
0000
0000
0000
0000
0000
0000
0000
0000
0000
0000
0000
0000
0000
0000
0000
0000
0000
0000
0000
0000
0000
0000
0000
0000
0000
0000
0000
0000
0000
0000
0000
0000
0000
0000
0000
0000
0000
0000
0000
0000
0000
0000
0000
0000
0000
0000
0000
0011
0000
0000
0000
0000
0000
0000
0000
0000
0000
0000
0000
0000
0000
0000
0000
0000
0000
0000
0000
0000
0000
0000
0000
0010
0000
0000
0000
0000
0000
0100
0000
0000
0000
0000
0000
0010
0000
0000
0000
0000
0000
0100
0000
0000
0000
0000
0000
0010
0000
0000
0000
0000
0000
0000
0000
0100
0000
0000
0000
0000
0000
0000
0000
0010
0000
0000
0000
0000
0000
0000
0000
,
0200
0000
0000
0000
1301
0000
0000
0000
0001
0010
0100
1000
0002
0000
0000
0000
,
0013
0000
1100
1100
0100
0000
1100
0000
,
0021
0001
0001
0001
0001
0001
0001
0001
1200
0000
0000
0000
0300
0000
0000
0000
,
0101
0000
0001
0000
1100
0000
0001
0000
1100
0000
0001
0000
1000
0000
0101
0000
1000
0000
0101
0000
1000
0000
0101
0000
0002
0003
0002
0003
0002
0003
0002
0003
,
1100
0000
1100
0000
1100
0000
1100
0000
0002
0000
0000
0000
1003
0100
1000
0100
0001
0100
0001
0100
0001
1000
0001
1000
0101
0000
0101
0000
0000
0000
0000
0000
,
0101
0000
0000
0000
0101
0000
0000
0000
1000
0000
0000
0000
1000
0100
0001
0100
1000
0000
0000
0000
1000
0000
0000
0000
1100
0000
0000
0000
0001
0000
0000
0000
1001
0000
0000
0000
0000
0000
0000
0000
1001
0000
0000
0000
0000
0000
0000
0000
0100
0000
1000
0000
0100
0000
1000
0000
0000
0000
0000
0000
0000
0000
0000
0000
,
1231
0000
0001
0001
0011
0000
1010
0000
1010
0000
0010
0010
2002
3000
0000
0000
,
2003
0000
0000
0000
3000
0000
0000
0000
0010
0000
0000
0000
0010
0000
0000
0000
0001
1000
0001
1000
0010
0000
0000
0000
0011
0000
0000
0000
0010
0000
0000
0000
,
1000
0001
1000
0001
1010
0000
1010
0000
0010
0000
0010
0000
0011
0011
0011
0011
,
2001
0000
0000
0000
0000
0000
0000
0000
3001
0000
0000
0000
1002
0000
0000
0000
0000
0000
0000
0003
1002
0000
0000
0000
1013
0000
0000
0000
0011
0000
0000
0000
,
1321
0000
0000
0000
0000
0000
0000
0000
1001
0000
0000
0000
0000
0000
0000
0000
0100
0000
0000
0000
0000
0000
0000
0000
0100
0000
0000
0000
0000
0000
0000
0000
1002
0000
0000
0000
0000
0000
0000
0000
0000
0000
0000
0000
0000
0000
0000
0000
1003
0100
1000
0100
1000
0100
1000
0100
1000
0000
0100
0000
1000
0000
0100
0000
,
1001
0000
0000
0000
,
0000
0000
0230
0000
,
0000
0000
0000
0000
,
0000
0000
0302
0000
,
0000
0000
0000
0000
,
0000
0000
2003
0000
,
0000
0000
0000
0000
,
0000
0000
3020
0000
,
0000
0000
0000
0000
,
0000
0000
0230
0000
,
0000
0000
0000
0000
,
0000
0000
0302
0000
,
0000
0000
0000
0000
,
0000
0000
2003
0000
,
0000
0000
0000
0000
,
0000
0000
3020
0000
,
0000
0000
0000
0000
,
0000
0000
0230
0000
,
0000
0000
0000
0000
,
0000
0000
0000
0000
,
1301
0000
1001
0000
1001
0000
0010
0000
0011
0000
0000
0000
1020
0000
1001
0000
0132
0000
0000
0000
0000
0000
0000
0003
0201
0000
0000
0000
0000
0000
0000
0300
,
0110
0000
0110
0000
0110
0000
0110
0000
0110
0000
0110
0000
1000
0100
0010
0001
1100
0000
1100
0000
0010
0000
0000
0000
0010
0000
0000
0000
0010
0000
0000
0000
,
0101
0000
0000
0101
0000
0000
0101
0000
0000
0101
0000
0000
0010
0000
0000
0000
0010
0000
0000
0000
0020
0000
0000
0000
0000
0000
0000
0000
0000
0000
0000
0000
0000
0000
0000
0000
0000
0000
0000
0000
0000
0000
0000
0000
0000
0000
0000
0000
,
1030
0100
0001
0000
0001
0000
0001
0000
0001
0020
0030
0000
0000
0000
0000
0000
0001
0000
0001
0000
0001
0010
0100
0000
0100
0000
0100
0000
0010
0000
0010
0000
,
1001
0000
0000
0000
0000
0000
0000
0000
0000
0000
0000
0000
0000
0000
0000
0000
0010
0100
0010
0100
0010
0100
0010
0100
1001
0000
0000
0000
0000
0000
0000
0000
0000
0000
0000
0000
0000
0000
0000
0000
1000
0100
0010
0001
0010
0100
1000
0100
1001
0000
0000
0000
0000
0000
0000
0000
1001
0000
0000
0000
0000
0000
0000
0000
,
1001
0000
0000
0000
0000
0000
0000
0000
1001
0000
0000
0000
0000
0000
0000
0000
0010
0100
1000
0100
0010
0001
0010
0100
1001
0000
0000
0000
0000
0000
0000
0000
0000
0000
0000
0000
0000
0000
0000
0000
1001
0000
0000
0000
0000
0000
0000
0000
0100
0010
0100
0010
0100
0010
0100
0010
0100
0010
0100
0010
0100
0010
0100
0010
,
1200
0301
1200
0301
1200
0301
1200
0301
0210
0000
1310
0000
1010
0000
0110
0000
,
0011
0011
0011
0011
1000
1000
0110
0000
1001
1001
1001
1001
0020
0000
0000
0000
,
0131
0101
0101
0101
0010
0010
0101
0000
,
1001
1001
0101
0000
0010
0010
0101
0101
,
0101
0000
0010
0101
0000
0010
0101
0101
,
0110
0000
0000
0000
0000
0000
0000
0000
0110
0000
0000
0000
0000
0000
0000
0000
0101
0000
0000
0000
0000
0000
0000
0000
0000
0000
0000
0000
0000
0000
0000
0000
0010
0000
0000
0000
0010
0000
0000
0000
1000
0100
0010
0001
1000
0100
0010
0001
0000
0000
0000
0000
0000
0000
0000
0000
0000
0000
0000
0000
0000
0000
0000
0000
,
0102
0000
1003
0000
0102
0000
1003
0000
0110
0000
0000
0000
0010
1000
0100
0001
0110
0000
0000
0000
0102
0000
1003
0000
0102
0000
1003
0000
0110
0000
0000
0000
,
2110
0000
0110
0000
3002
0000
0000
0000
0113
0000
0110
0000
2010
3000
2010
3000
0110
0000
0110
0000
0110
0000
0110
0000
0101
0000
0000
0000
1010
0000
0000
0000
,
0101
0000
0101
0000
0101
0101
0101
0101
1020
0000
0000
0000
1031
0000
0000
1001
,
0000
0000
1001
0000
0000
1001
0000
0000
1001
0000
1001
0000
1001
0000
0000
0000
,
0120
0030
0120
0030
0120
0030
0120
0030
1020
0000
0000
0000
0030
0000
0000
0000
0001
0000
0001
0000
0010
0000
0010
0000
0100
0000
0100
0000
1000
0000
1000
0000
,
0101
0000
0000
0000
0000
0000
0000
0000
0000
0000
0000
0000
0000
0000
0000
0000
0000
0000
0000
0000
0000
0000
0000
0000
0101
0000
0000
0000
0000
0000
0000
0000
0000
0000
0000
0000
0000
0000
0000
0000
0000
0000
0000
0000
0000
0000
0000
0000
0010
0000
0000
0000
1000
0000
0000
0000
0000
0000
0000
0000
0010
0000
0000
0000
1000
0000
0000
0000
0000
0000
0000
0000
0101
0000
0000
0000
0000
0000
0000
0000
0000
0000
0000
0000
0101
0000
0000
0000
0000
0000
0000
0000
0000
0000
0000
0000
0101
0000
0000
0000
0000
0000
0000
0000
0000
0000
0000
0000
0101
0000
0000
0000
0000
0000
0000
0000
0000
0000
0000
0000
0101
0000
0000
0000
0000
0000
0000
0000
0000
0000
0000
0000
0101
0000
0000
0000
0000
0000
0000
0000
0000
0000
0000
0000
0010
0000
0000
0000
0000
0000
0000
0000
0000
0000
0000
0000
1000
0000
0000
0000
0000
0000
0000
0000
0000
0000
0000
0000
0001
0000
0000
0100
0000
0000
0010
0000
0000
1000
0000
0000
0001
0000
0000
0100
0000
0000
0010
0000
0000
1000
0000
0000
,
0110
0000
0110
0000
0110
0000
0110
0001
0110
0000
0110
0000
0110
0000
1001
0000
0020
0000
0000
0000
1130
0000
0000
0000
1100
0000
0000
0000
0002
0000
0000
0000
,
1103
0000
0000
0000
0000
0000
0000
0000
0000
0000
0000
0000
1100
0000
0000
0000
0000
0000
0000
0000
0000
0000
0000
0000
1100
0000
0000
0000
0000
0000
0000
0000
0000
0000
0000
0000
1100
0000
0000
0000
0000
0000
0000
0000
0000
0000
0000
0000
0100
0000
0000
0000
0001
0000
0000
0000
0000
0000
0000
0000
0100
0000
0000
0000
0001
0000
0000
0000
0000
0000
0000
0000
1010
0000
0000
0000
0000
0000
0000
0000
0000
0000
0000
0000
0000
0000
0000
0000
0000
0000
0000
0000
0000
0000
0000
0000
0101
0000
0000
0000
0000
0000
0000
0000
0000
0000
0000
0000
0101
0000
0000
0000
0000
0000
0000
0000
0000
0000
0000
0000
0101
0000
0000
0000
0000
0000
0000
0000
0000
0000
0000
0000
0101
0000
0000
0000
0000
0000
0000
0000
0000
0000
0000
0000
0010
0000
0000
0000
0000
0000
1000
0000
0000
0000
0000
0000
0010
0000
0000
0000
0000
0000
0001
0000
0000
0000
0000
0000
0010
0000
0000
0000
0000
0000
1000
0000
0000
0000
0000
0000
0010
0000
0000
0000
0000
0000
0001
0000
0000
0000
0000
0000
,
1100
0000
1100
0000
1100
0000
1010
0000
0101
0000
0000
0000
0101
0000
0011
0000
1200
0000
0000
0000
0000
0000
0000
0300
2100
0000
0000
0000
0000
0000
0000
0000
,
3011
0000
0011
0000
0011
0000
0011
0000
1000
0001
1000
0001
0110
0000
0110
0000
0110
0000
0110
0000
1001
0000
0000
0000
1001
0000
0000
0000
1001
0000
0000
0000
,
0101
0000
0000
0000
0000
0000
0000
0000
0000
0000
0000
0000
0000
0000
0000
0000
0100
0001
1000
0010
0100
0001
1000
0010
0101
0000
0000
0000
0000
0000
0000
0000
0000
0000
0000
0000
0000
0000
0000
0000
0001
0100
0010
1000
0001
0100
0010
1000
0101
0000
0000
0000
0000
0000
0000
0000
0101
0000
0000
0000
0000
0000
0000
0000
,
1000
0010
0100
0000
0100
0000
0100
0000
0000
0020
0030
0000
0000
0000
0000
0000
0100
0000
0100
0000
0100
0001
0010
0000
0010
0000
0010
0000
1000
0000
1000
0000
,
0110
0000
0101
0110
0000
0101
0110
0110
,
1100
1100
0101
0000
1000
1000
0101
0101
,
0101
0000
1100
0101
0000
1100
0101
0101
,
0110
0000
0000
0000
0000
0000
0000
0000
0110
0000
0000
0000
0000
0000
0000
0000
1000
0000
0100
0000
0010
0000
0001
0000
0010
0000
0100
0000
1000
0000
0001
0000
0010
0000
0000
0000
0010
0000
0000
0000
1000
0100
0010
0001
1000
0100
0010
0001
0000
0000
0000
0000
0000
0000
0000
0000
0000
0000
0000
0000
0000
0000
0000
0000
,
1100
0000
0000
0000
1100
0000
0000
0000
0011
0000
0000
0000
0010
0100
0010
0100
0001
1000
0001
1000
0110
0000
0000
0000
1010
0000
0000
0000
1001
0000
0000
0000
,
0110
0000
0000
0110
0000
0000
0101
0000
0000
0000
0000
0000
0110
0000
0000
0110
0000
0000
0010
1000
0000
0010
1000
0000
0101
0000
0000
0101
0000
0000
0101
0000
0000
0101
0000
0000
0110
0000
0000
0000
0000
0000
1001
0000
0000
0000
0000
0000
,
1100
1100
1100
0020
0130
0100
0100
0010
,
1100
0000
1100
0000
1100
0000
1100
0000
0011
0000
0000
0000
0110
0000
0000
0000
0001
1000
0001
1000
0110
0000
0000
0000
1100
0000
1100
0000
0020
0000
0030
0000
,
0101
0000
0000
0000
0000
0000
0000
0000
0000
0000
0000
0000
0011
0000
0000
0000
0000
0000
0000
0000
0000
0000
0000
0000
0101
0000
0000
0000
0000
0000
0000
0000
0000
0000
0000
0000
0000
0000
0000
0000
0000
0000
0000
0000
0000
0000
0000
0000
1000
0000
0000
0000
0010
0000
0000
0000
0000
0000
0000
0000
1000
0000
0000
0000
0010
0000
0000
0000
0000
0000
0000
0000
1001
0000
0000
0000
0000
0000
0000
0000
0000
0000
0000
0000
1001
0000
0000
0000
0000
0000
0000
0000
0000
0000
0000
0000
1001
0000
0000
0000
0000
0000
0000
0000
0000
0000
0000
0000
1001
0000
0000
0000
0000
0000
0000
0000
0000
0000
0000
0000
1001
0000
0000
0000
0000
0000
0000
0000
0000
0000
0000
0000
1001
0000
0000
0000
0000
0000
0000
0000
0000
0000
0000
0000
1001
0000
0000
0000
0000
0000
0000
0000
0000
0000
0000
0000
0100
0000
0000
0000
0000
0000
0000
0000
0000
0000
0000
0000
0010
0000
0000
0000
0000
0000
0001
0000
0000
0000
0000
0000
1000
0000
0000
0000
0000
0000
0100
0000
0000
0000
0000
0000
,
1001
0000
1001
0000
1001
0000
1001
0010
1001
0000
1001
0000
1001
0000
0110
0000
2000
0000
0000
0000
3101
0000
0000
0000
0101
0000
0000
0000
0020
0000
0000
0000
,
0131
0000
0000
0000
0000
0000
0000
0000
0000
0000
0000
0000
0101
0000
0000
0000
0000
0000
0000
0000
0000
0000
0000
0000
0101
0000
0000
0000
0000
0000
0000
0000
0000
0000
0000
0000
0101
0000
0000
0000
0000
0000
0000
0000
0000
0000
0000
0000
0001
0000
0000
0000
0010
0000
0000
0000
0000
0000
0000
0000
0001
0000
0000
0000
0010
0000
0000
0000
0000
0000
0000
0000
1100
0000
0000
0000
0000
0000
0000
0000
0000
0000
0000
0000
0000
0000
0000
0000
0000
0000
0000
0000
0000
0000
0000
0000
0011
0000
0000
0000
0000
0000
0000
0000
0000
0000
0000
0000
0011
0000
0000
0000
0000
0000
0000
0000
0000
0000
0000
0000
0011
0000
0000
0000
0000
0000
0000
0000
0000
0000
0000
0000
0011
0000
0000
0000
0000
0000
0000
0000
0000
0000
0000
0000
1000
0000
0000
0000
0000
0000
0100
0000
0000
0000
0000
0000
1000
0000
0000
0000
0000
0000
0010
0000
0000
0000
0000
0000
1000
0000
0000
0000
0000
0000
0100
0000
0000
0000
0000
0000
1000
0000
0000
0000
0000
0000
0010
0000
0000
0000
0000
0000
,
0101
0000
0101
0000
0101
0000
1100
0000
0011
0000
0000
0000
0011
0000
1010
0000
0102
0000
0000
0000
0000
0000
0000
0003
0201
0000
0000
0000
0000
0000
0000
0000
,
1310
0000
1010
0000
1010
0000
1010
0000
0100
0010
0100
0010
1001
0000
1001
0000
1001
0000
1001
0000
0110
0000
0000
0000
0110
0000
0000
0000
0110
0000
0000
0000
,
0011
0000
0000
0000
0000
0000
0000
0000
0000
0000
0000
0000
0000
0000
0000
0000
0001
0010
0100
1000
0001
0010
0100
1000
0011
0000
0000
0000
0000
0000
0000
0000
0000
0000
0000
0000
0000
0000
0000
0000
0010
0001
1000
0100
0010
0001
1000
0100
0011
0000
0000
0000
0000
0000
0000
0000
0011
0000
0000
0000
0000
0000
0000
0000
,
0100
1000
0001
0000
0001
0000
0001
0000
0000
2000
3000
0000
0000
0000
0000
0000
0001
0000
0001
0000
0001
0010
1000
0000
1000
0000
1000
0000
0100
0000
0100
0000
,
1001
0000
0011
1001
0000
0011
1001
1001
,
0101
0101
0011
0000
0100
0100
0011
0011
,
0011
0000
0101
0011
0000
0101
0011
0011
,
1001
0000
0000
0000
0000
0000
0000
0000
1001
0000
0000
0000
0000
0000
0000
0000
0100
0000
0001
0000
1000
0000
0010
0000
1000
0000
0001
0000
0100
0000
0010
0000
1000
0000
0000
0000
1000
0000
0000
0000
0100
0001
1000
0010
0100
0001
1000
0010
0000
0000
0000
0000
0000
0000
0000
0000
0000
0000
0000
0000
0000
0000
0000
0000
,
1010
0000
0000
0000
1010
0000
0000
0000
0101
0000
0000
0000
0001
1000
0001
1000
0100
0010
0100
0010
1001
0000
0000
0000
0011
0000
0000
0000
0110
0000
0000
0000
,
1001
0000
0000
1001
0000
0000
1100
0000
0000
0000
0000
0000
1001
0000
0000
1001
0000
0000
0001
0010
0000
0001
0010
0000
1100
0000
0000
1100
0000
0000
1100
0000
0000
1100
0000
0000
1001
0000
0000
0000
0000
0000
0200
0000
0000
0000
0000
0000
,
0301
0000
0000
0000
0000
0000
0000
0000
0000
0000
0000
0000
0000
0000
0000
0000
0000
0000
0000
0000
0000
0000
0000
0000
0001
0000
0000
0000
0000
0000
0000
0000
0000
0000
0000
0000
0000
0000
0000
0000
0000
0000
0000
0000
0000
0000
0000
0000
0001
0000
0000
0000
0000
0000
0000
0000
0000
0000
0000
0000
0000
0000
0000
0000
0000
0000
0000
0000
0000
0000
0000
0000
0001
0000
0000
0000
0000
0000
0000
0000
0000
0000
0000
0000
0000
0000
0000
0000
0000
0000
0000
0000
0000
0000
0000
0000
2000
0000
0000
0000
0000
0000
0000
0000
0000
0000
0000
0000
0000
0000
0000
0000
0000
0000
0000
0000
0000
0000
0000
0000
0000
0000
0000
0000
0000
0000
0000
0000
0000
0000
0000
0000
0000
0000
0000
0000
0000
0000
0000
0000
0000
0000
0000
0000
0020
0000
0000
0000
0000
0000
0000
0000
0000
0000
0000
0000
0000
0000
0000
0000
0000
0000
0000
0000
0000
0000
0000
0000
0000
0000
0000
0000
0000
0000
0000
0000
0000
0000
0000
0000
0000
0000
0000
0000
0000
0000
0000
3030
0000
0000
0000
0000
,
1010
1010
1010
0001
0101
0101
1001
0000
,
0101
0000
0000
0000
0000
0000
0101
0000
0000
0000
0000
0000
0010
1000
0000
0010
1000
0000
0110
0000
0000
0000
0000
0000
0110
0000
0000
0000
0000
0000
0110
0000
0000
0000
0000
0000
0001
0000
0000
0001
0000
0000
0020
0000
0000
0000
0000
0000
,
1130
0000
1100
0000
0002
0003
0002
0003
0110
0000
0110
0000
0110
0000
0110
0000
0020
0030
0020
0030
0020
0030
0020
0030
0101
0000
0000
0000
0000
0000
0000
0000
,
1100
0000
1100
0000
1100
0000
0020
0000
0101
0101
0101
0131
1000
0100
0010
0001
,
0110
0000
0110
0000
0110
0000
0101
0000
1010
0000
0000
0000
1010
0000
0110
0000
1002
0000
0000
0000
0000
0000
0000
0003
2001
0000
0000
0000
0000
0000
0000
0000
,
3110
0000
0110
0110
0000
0110
0000
0101
0110
0000
1010
0000
1010
0000
1010
0000
,
0101
0000
0020
0131
0101
0000
0020
0130
,
1001
0000
0000
0000
0010
0000
0100
0000
1000
0000
1000
0000
0001
0000
0001
0000
0110
0000
0110
0000
1000
0100
0010
0001
1000
0000
1000
0000
0010
0000
0010
0000
,
0110
0000
1010
0110
0000
1010
0110
0110
,
0011
0011
1010
0000
0001
0001
1010
1010
,
1010
0000
0011
1010
0000
0011
1010
1010
,
0110
0000
0000
0000
0000
0000
0000
0000
0110
0000
0000
0000
0000
0000
0000
0000
0001
0000
0010
0000
0100
0000
1000
0000
0100
0000
0010
0000
0001
0000
1000
0000
0100
0000
0000
0000
0100
0000
0000
0000
0001
0010
0100
1000
0001
0010
0100
1000
0000
0000
0000
0000
0000
0000
0000
0000
0000
0000
0000
0000
0000
0000
0000
0000
,
0011
0000
0000
0000
0011
0000
0000
0000
1100
0000
0000
0000
0100
0010
0100
0010
1000
0001
1000
0001
0110
0000
0000
0000
0101
0000
0000
0000
1001
0000
0000
0000
,
0110
0000
0000
0110
0000
0000
1010
0000
0000
0000
0000
0000
0110
0000
0000
0110
0000
0000
0100
0001
0000
0100
0001
0000
1010
0000
0000
1010
0000
0000
1010
0000
0000
1010
0000
0000
0110
0000
0000
0000
0000
0000
2010
0001
0000
0010
0001
0000
,
3100
0100
0100
0100
0020
0000
0130
0100
,
0100
0000
0100
0000
0001
1000
0001
1000
0110
0000
0110
0000
0110
0000
0000
0000
,
1001
0000
0000
0000
1001
0000
0000
0000
1010
0000
0000
0000
1000
1000
1000
1000
0010
0010
0010
0010
0101
0000
0000
0000
1100
0000
0000
0000
0011
0000
1100
0000
,
1100
0000
0000
1100
0000
0000
0000
0000
0000
0110
0000
0000
0110
0000
0000
0101
1000
0000
0100
1000
0000
0101
0000
0000
0101
0000
0000
0101
0000
0000
0101
0000
0000
0110
0000
0000
0000
0000
0000
1001
0100
0000
0000
0000
0000
2010
0000
0000
,
0000
0010
0000
3010
0000
0200
0000
0300
0000
2010
0000
0010
0000
3010
0000
0010
,
0100
0100
0100
0100
2000
3000
2000
3000
2000
3000
2000
3000
2000
3000
2000
3000
;
